>

The Damned Dont You Wish That We Were Dead 2015 BRRip XviD AC3

The Damned Dont You Wish That We Were Dead 2015 BRRip XviD AC3

Directed by Wes Orshoski
Produced by Wes Orshoski
Written by Wes Orshoski
Starring
David Vanian
Captain Sensible
Rat Scabies
Brian James
Music by The Damned
Cinematography Wes Orshoski
Edited by Wes Orshoski
Production
companies
Three Count Films[1]
Release date
March 19, 2015 (SXSW Film Festival)
Running time
110 minutes[1]
Country United States
Genre Musical
Synopsis / Plot From 'Lemmy' co-director/producer Wes Orshoski comes the first ever film about the long-ignored pioneers of punk: The Damned, the first of the UK punk bands to release a single, album and the first to tour America. This authorized film includes appearances from Chrissie Hynde, Mick Jones, Lemmy and members of Pink Floyd, Black Flag, Guns N Roses, the Sex Pistols, Blondie, the Buzzcocks, and more. Shot around the world over the past three years, it tells the story of the band's complex history, as it celebrated its 35th anniversary and found its estranged former members striking out on their own anniversary tour, while still others battle cancer. The film gets up close and personal with Damned founders Rat Scabies, Dave Vanian, Captain Sensible, and Brian James as it tells the story of one of the most criminally ignored acts in music history. File under: Vampiric, Absurdist, Psychedelic, Gnarled, Authentic, Influential, Energetic, Original, Uncompromising, Defiant, Trailblazing, Snotty, Offensive, Adored and definitely not the Clash or the Sex Pistols.



Video
ID : 0
Format : MPEG-4 Visual
Format profile : [email protected]
Format settings, BVOP : No
Format settings, QPel : No
Format settings, GMC : No warppoints
Format settings, Matrix : Default (H.263)
Codec ID : XVID
Codec ID/Hint : XviD
Duration : 1h 50mn
Bit rate : 1 598 Kbps
Width : 720 pixels
Height : 400 pixels
Display aspect ratio : 16:9
Frame rate : 23.976 fps
Color space : YUV
Chroma subsampling : 4:2:0
Bit depth : 8 bits
Scan type : Progressive
Compression mode : Lossy
Bits/(Pixel*Frame) : 0.231
Stream size : 1.23 GiB (78%)
Writing library : Lavc57.89.100

Audio
ID : 1
Format : AC-3
Format/Info : Audio Coding 3
Mode extension : CM (complete main)
Format settings, Endianness : Big
Codec ID : 2000
Duration : 1h 50mn
Bit rate mode : Constant
Bit rate : 448 Kbps
Channel(s) : 2 channels
Channel positions : Front: L R
Sampling rate : 48.0 KHz
Frame rate : 31.250 fps (1536 spf)
Compression mode : Lossy
Stream size : 354 MiB (22%)
Alignment : Aligned on interleaves
Interleave, duration : 42 ms (1.00 video frame)
Interleave, preload duration : 512 ms


The Damned Dont You Wish That We Were Dead 2015 BRRip XviD AC3
The Damned Dont You Wish That We Were Dead 2015 BRRip XviD AC3

The Damned Dont You Wish That We Were Dead 2015 BRRip XviD AC3
Buy Premium Account To Get High Speed Download


loading...
Loading...

Add comment

The author will be very pleased to hear feedback about your news.

    • bowtiesmilelaughingblushsmileyrelaxedsmirk
      heart_eyeskissing_heartkissing_closed_eyesflushedrelievedsatisfiedgrin
      winkstuck_out_tongue_winking_eyestuck_out_tongue_closed_eyesgrinningkissingstuck_out_tonguesleeping
      worriedfrowninganguishedopen_mouthgrimacingconfusedhushed
      expressionlessunamusedsweat_smilesweatdisappointed_relievedwearypensive
      disappointedconfoundedfearfulcold_sweatperseverecrysob
      joyastonishedscreamtired_faceangryragetriumph
      sleepyyummasksunglassesdizzy_faceimpsmiling_imp
      neutral_faceno_mouthinnocent
reload, if the code cannot be seen

Comments 0

Loading...